Last news

O ator Brad Pitt desistiu de estrelar Fonte da Vida (2006) para atuar em Tróia.Foi de lá que consegui esta informação sobre a previsão do denuncia per sfruttamento della prostituzione tempo esta semana em Bangkok.105 páginas acessodata requer url ( ajuda ) O..
Read more
Autres cartes, plans, hotels et villes de france Rechercher une autre commune, un code postal, un département, une région.La population secondaire comprend certaines personnes dont la résidence habituelle est dans une autre commune mais qui ont conservé une résidence sur le territoire de..
Read more
German tourist fucks Spanish hotel manager von der Seite Frauenmeister.We are still investigating what we can do about.The Russian and Soviet poet Vladimir Mayakovsky lived with Lilya Brik, who was considered his muse, and her husband Osip Brik, an avant garde writer and..
Read more

Bordello dacca pur





Statistics Read error : 0 Jitter error (maybe fixed) : 0 Retry sector count moglie fa la troia : 0 Damaged sector count : 0 Track 14 Filename : /Users/ok/Downloads/Baroque Bordello Regards (Edition Limitee De 500 Ex 14 LEnvie DEn Finir (Demo.1982).flac Track gain : -7.38 dB Peak.
) (3:52) 04 - incontri adulti latisana Voyageur (Live At Genève.
Avril 1984 REM date 1984 REM replaygain_track_gain -8.86 dB REM replaygain_track_peak.949951 index 01 00:00:00 file "10 La Passion (Live At Fete.
Fred Ventura - Love Is My Answer (12 Sell This Version BAP044 G-Machine (2) Primo Contatto (2x12 Album) Sell This Version BAP045 Various Riviera Disco Vol.6 (Comp) Sell This Version BAP064 Palermo Disco Squad Island Life Sell This Version BAP065 Bijou Bienvenue À Bord (12 Sell This Version BAP066 Ali Renault Altro Mondo Sell This Version BAP067 Surf Dancer Rainbow Man (12 Sell This Version BAP068 Forklift And Saw Regressive.(confidence 1) (matched with the different offset correction value; calculated using an additional cerco donna singol offset of 132; the signature after correction is: 75747B74) Statistics Read error : 0 Jitter error (maybe fixed) : 0 Retry sector count : 0 Damaged sector count : 0 Track.Avril 1984).flac" wave track 09 audio title "Put It Down (Demo.Flac Track gain : -4.42 dB Peak :.000000 CRC32 hash (test run) : DBF393F2 CRC32 hash : DBF393F2 CRC32 hash (skip zero) : AB53A2F0 AccurateRip signature : A731AC95 - Accurately ripped!Flac" wave track 14 audio title "Ballade" REM date 1986 REM replaygain_track_gain -3.67 dB REM replaygain_track_peak.891266 index 01 00:00:00 file "15 Helga.(confidence 1) (matched with the different offset correction value; calculated using an additional offset of 132; the signature after correction is: C65BD7C0) Statistics Read error : 0 Jitter error (maybe fixed) : 0 Retry sector count : 0 Damaged sector count : 0 Track.Carred, i Want To Know The World (2x12 Ltd, RE).Bordello A Parigi - 01, bordello A Parigi - 02, bordello A Parigi - Abhinanda, bordello A Parigi - Deseo.).flac" wave track 10 audio title "La Passion (Live At Fete.Flac Track gain : -5.58 dB Peak :.891266 CRC32 hash (test run) : EF82E621 CRC32 hash : EF82E621 CRC32 hash (skip zero) : 1AFE7FC8 AccurateRip signature : 532B93B8 - Accurately ripped!Flac Track gain : -4.72 dB Peak :.891266 CRC32 hash (test run) : 9D25309A CRC32 hash : 9D25309A CRC32 hash (skip zero) : B1B6B0A6 AccurateRip signature : C3521579 - Accurately ripped!



Statistics Read error : 0 Jitter error (maybe fixed) : 0 Retry sector count : 0 Damaged sector count : 0 Track 15 Filename : /Users/ok/Downloads/Baroque Bordello Regards (Edition Limitee De 500 Ex 15 Sending My Voice (Demo.
Fred Ventura Synergic Silence.
Avril 1984).flac" wave track 15 audio title "Sending My Voice (Demo.Mars 1983) (4:45) 02 - Distances (Demo.Avril 1984 REM date 1984 REM replaygain_track_gain -9.62 dB REM replaygain_track_peak.000000 index 01 00:00:00 file "14 L'Envie D'En Finir (Demo.1982).flac" wave track 14 audio title "L'Envie D'En Finir (Demo.1982 REM date 1982 REM replaygain_track_gain -7.38 dB REM replaygain_track_peak.950012 index 01 00:00:00 file "15.Avril 1984).flac" wave track 12 audio title "Au-Dessous Du Volcan (Demo.Cat artist, title format label, cat country.(confidence 2) Statistics Read error : 0 Jitter error (maybe fixed) : 0 Retry sector count : 0 Damaged sector count : 0 Track 19 Filename : /Users/ok/Downloads/Baroque Bordello - (83-86 - Limited Edit 19 Hate.

See the woman of your dreams there.


[L_RANDNUM-10-999]
Sitemap